the flash office 2019 criminal minds Game of Thrones fgt lucifer Maniac s01e07 big bang theory luciana souza bbc ant man and the wasp Better Call Saul mayans flash czinner ddr High Castle s03e04 south park s22e03 modern family Venom 2160p south park modern family s10e03 american horror story hindi big bang theory español the walking dead doctor who chicago med s04e03 etrg Mission Impossible Fallout The big bang theory the gifted ncis 0 arrow español etmovies 2018 ITA dtone solo Ant-Man and the Wasp VOICE lethal weapon vikings The Man In The High Castle audiobook better call saul s04e10 ethd inferno evo ettv seal team LESBIAN ANAL SEX SLAVES survivor riverdale american horror story s08e05 criminal minds s14e02 star trek DISCOVERY wwe seal team s02e02 The Gifted s02e03 nfl THIS IS US jurassic world ita incredibles 2 
Warning! Use a VPN When Downloading Torrents!
Your IP Address is 136.243.35.158. Location is Germany
Your Internet Provider is tracking your torrent activity! Hide your IP ADDRESS with a VPN!
We strongly recommend using NordVPN to anonymize your torrenting. 30 Day Money Back Guarantee!
Try it Now!
ETTV Recommended TV Shows
American.Horror.Story.S08E05.HDTV.x264-LucidTV[ettv] torrent
SEAL.Team.S02E02.WEB.x264-TBS[ettv] torrent
Greys.Anatomy.S15E04.HDTV.x264-KILLERS[ettv] torrent
Mr.Mercedes.S02E08.WEBRip.x264-ETRG[ettv] torrent

ETTV Recommended Xvid
Brothers.Nest.2018.DVDRip.XViD-ETRG torrent
22.Chaser.2018.HDRip.XviD.AC3-EVO torrent
Space.Babes.From.Outer.Space.2018.BRRip.XviD.AC3-EVO torrent
A.Crooked.Somebody.2018.HDRip.XviD.AC3-EVO[EtMovies] torrent

ETTV Recommended HD
Constantine.City.of.Demons.The.Movie.2018.1080p.BluRay.x264.DTS-HDMA.5.1-DTOne torrent
Death.Race-Beyond.Anarchy.2018.Multi.1080p.BluRay.x264.DTS-HDMA.5.1-DTOne torrent
The.Extraordinary.Journey.of.the.Fakir.2018.Multi.BluRay.1080p.x264.DTSXLL.5.1-DTOne torrent
The.House.of.Violent.Desire.2018.1080p.WEB-DL.AAC2.0.H.264-FGT[EtHD] torrent

ETTV Recommended UHD
Hook.1991.mUHD.2160p.BluRay.x265.HDR.DDP.5.1-DTOne torrent
Uncle.Drew.2018.2160p.mUHD.BluRay.x265.HDR.DDP.5.1-DTOne torrent
Hotel.Transylvania.3.Summer.Vacation.2018.mUHD.2160p.BluRay.x265.HDR.DDP.5.1-DTOne torrent
Hotel.Artemis.2018.mUHD.2160p.BluRay.x265.HDR.DDP.5.1-DTOne torrent

ETTV Recommended Cam
The Predator 2018 NEW HDCAM.XViD.AC3 ETRG torrent
THE NUN 2018 NEW HDCAM-24HD torrent
Venom 2018 HD-TS V2 X264-1XBET torrent
A.Star.Is.Born.2018.HDCAM.XViD.AC3-ETRG torrent

ETTV Recommended Foreign
Imaikkaa Nodigal (2018) HDRip x264 - DTOne torrent
Jurassic.World.Fallen.Kingdom.(2018).[1080p].[Dual.Audio].[Org.DTS.HD.H.R].{Hindi.7.1+Eng.6Ch}.-~{DOOMSDAY}~- torrent
Constantine (2005) 1080p BluRay x264 Dual Audio [Hindi DD2.0 Org - English DD5.1] - Esubs ~ Ranvijay torrent
Rodin.2017.1080p.BluRay.x264-CiNEFiLE[EtHD] torrent

Social


Download Torrent "X-X-X -Uncensored Season 1 Complete 1080p WEB-RIP x264 AC3 2.0 ~ Ranvijay"

IMDB Details
Description:

N/A

Genre:

N/A

Download Torrent (Magnet)
Download Torrent (File)
Seeds: 327
Leechers: 384
Completed: 2,022 
Last Checked: 28-09-2018 05:21:27


Loading...
Details
Title:X-X-X -Uncensored Season 1 Complete 1080p WEB-RIP x264 AC3 2.0 ~ Ranvijay
Description:




Join My Facebook Group

X-X-X -Uncensored Season 1 Complete 1080p WEB-RIP x264  AC3 2.0 ~ Ranvijay

Buy RDP Online



General
Format                                   : Matroska
Format version                           : Version 4 / Version 2
File size                                : 539 MiB
Duration                                 : 24 min 2 s
Overall bit rate                         : 3 133 kb/s
Movie name                               : X-X-X S01 E01 1080p ~ Ranvijay

Video
ID                                       : 1
Format                                   : AVC
Format/Info                              : Advanced Video Codec
Duration                                 : 24 min 2 s
Bit rate                                 : 3 000 kb/s
Width                                    : 1 920 pixels
Height                                   : 824 pixels
Display aspect ratio                     : 2.35:1
Frame rate mode                          : Constant
Frame rate                               : 23.900 FPS
Color space                              : YUV
Chroma subsampling                       : 4:2:0
Bit depth                                : 8 bits
Scan type                                : Progressive
Bits/(Pixel*Frame)                       : 0.079
Stream size                              : 505 MiB (94%)
Title                                    : ~Ranvijay~

Audio
ID                                       : 2
Format                                   : AC-3
Format/Info                              : Audio Coding 3
Codec ID                                 : A_AC3
Duration                                 : 24 min 2 s
Bit rate mode                            : Constant
Bit rate                                 : 192 kb/s
Channel(s)                               : 2 channels
Channel positions                        : Front: L R
Sampling rate                            : 48.0 kHz
Frame rate                               : 31.250 FPS (1536 SPF)
Bit depth                                : 16 bits
Compression mode                         : Lossy
Delay relative to video                  : -5 ms
Stream size                              : 33.0 MiB (6%)
Title                                    : ~Ranvijay~
Language                                 : Hindi
Service kind                             : Complete Main
Default                                  : Yes
Forced                                   : Yes















Don't walk as you are king, walk as you don't care who the king is....!!





[url=http://www.facebook.com/groups/192253191390113/][/url]
Category:TV > HD/X264/H264
Lang:Hindi  Hindi
Total Size:2.36 GB
Info Hash:dbe59cee7ec23a218974882113a5ae0d0cc71f84
Added By:TheFighter
Date Added:28-09-2018 05:21:17

  

Files

File List: 
 File Size
Sample X-X-X S01 1080p ~ Ranvijay.mkv20 MB
SpecialRDP - Premium & Affordable Web Hosting Solution.url48.00 B
X-X-X S01 E01 1080p ~ Ranvijay.mkv539 MB
X-X-X S01 E02 1080p ~ Ranvijay.mkv517 MB
X-X-X S01 E03 1080p ~ Ranvijay.mkv432 MB
X-X-X S01 E04 1080p ~ Ranvijay.mkv582 MB
X-X-X S01 E05 1080p ~ Ranvijay.mkv325 MB



Loading...
Comments

There are currently no comments. Be the first one to write something !

Disclaimer: None of the files shown here are actually hosted or transmitted by this server. The links are provided solely by this site's users. The site moderation is also a service provided by the site's users. The administrator of this site (ettv.tv) cannot be held responsible for what its users post, or any other actions of its users. You may not use this site to distribute or download any material when you do not have the legal rights to do so. It is your own responsibility to adhere to these terms.