tag star trek discovery the meg Ncis hindi NFL Doctor Who S11E01 the resident 9-1-1 s02e04 ufc The Good Doctor S02E03 ddr Vikings luciana souza Ant-Man and the Wasp Survivor manifest 1080p 2018 better call saul s04e10 etmovies LESBIAN ANAL SEX SLAVES 2018 ITA 2160p wwe ita 2018 avengers the man in the High Castle ufc 229 Big Bang Theory Manifest S01E03 lucifer 0 The big bang theory playboy venom incredibles 2 the walking dead great british bake off s09e07 ethd better call saul DTOne venom 2018 evo ettv arrow español ant mAN AND THE WASP the walking dead s09e01 madam secretary office 2019 walking dead game of thrones a star is born shameless s09e05 star trek discovery español dtone Sicario the good doctor shameless Bull doctor who 1080p YIFY WESTWORLD fgt Mission Impossible Fallout etrg 
Warning! Use a VPN When Downloading Torrents!
Your IP Address is 136.243.35.158. Location is Germany
Your Internet Provider is tracking your torrent activity! Hide your IP ADDRESS with a VPN!
We strongly recommend using NordVPN to anonymize your torrenting. 30 Day Money Back Guarantee!
Try it Now!
ETTV Recommended TV Shows
The.Flash.2014.S05E01.HDTV.x264-SVA[ettv] torrent
Black.Lightning.S02E01.HDTV.x264-SVA[ettv] torrent
Mayans.M.C.S01E06.WEBRip.x264-TBS[ettv] torrent
The.Purge.S01E06.WEB.x264-TBS[ettv] torrent

ETTV Recommended Xvid
The.Witch.Files.2018.HDRip.XViD-ETRG torrent
Searching.2018.HC.HDRip.XviD.AC3-EVO[EtMovies] torrent
Brothers.Nest.2018.DVDRip.XViD-ETRG torrent
22.Chaser.2018.HDRip.XviD.AC3-EVO torrent

ETTV Recommended HD
Constantine.City.of.Demons.The.Movie.2018.1080p.BluRay.x264.DTS-HDMA.5.1-DTOne torrent
Death.Race-Beyond.Anarchy.2018.Multi.1080p.BluRay.x264.DTS-HDMA.5.1-DTOne torrent
Hangman.2017.Multi.BluRay.1080p.x264.DTS-HDMA.5.1-DTOne torrent
The.Extraordinary.Journey.of.the.Fakir.2018.Multi.BluRay.1080p.x264.DTSXLL.5.1-DTOne torrent

ETTV Recommended UHD
Hook.1991.mUHD.2160p.BluRay.x265.HDR.DDP.5.1-DTOne torrent
Uncle.Drew.2018.2160p.mUHD.BluRay.x265.HDR.DDP.5.1-DTOne torrent
Hotel.Transylvania.3.Summer.Vacation.2018.mUHD.2160p.BluRay.x265.HDR.DDP.5.1-DTOne torrent
Hotel.Artemis.2018.mUHD.2160p.BluRay.x265.HDR.DDP.5.1-DTOne torrent

ETTV Recommended Cam
The Predator 2018 NEW HDCAM.XViD.AC3 ETRG torrent
THE NUN 2018 NEW HDCAM-24HD torrent
Venom 2018 HD-TS V2 X264-1XBET torrent
A.Star.Is.Born.2018.HDCAM.XViD.AC3-ETRG torrent

ETTV Recommended Foreign
Vaseegara (2003) DVDRip x264 - DTOne torrent
Gangs of Wasseypur Part 1 Uncensored - 2012 BluRay Hindi 720p x264 AAC 5.1 ESub - mkvCinemas torrent
Gangs of Wasseypur Part 2 Uncensored - 2012 BluRay Hindi 720p x264 AAC 5.1 ESub - mkvCinemas torrent
Imaikkaa Nodigal (2018) HDRip x264 - DTOne torrent

Social


Download Torrent "Karenjit Kaur (2018) Complete Season 2 (S02) 720p PROPER UNTOUCHED WEB-DL x..."

IMDB Details
Description:

N/A

Genre:

N/A

Download Torrent (Magnet)
Download Torrent (File)
Seeds: 671
Leechers: 371
Completed: 3,964 
Last Checked: 17-09-2018 21:24:03


Loading...
Details
Title:Karenjit Kaur (2018) Complete Season 2 (S02) 720p PROPER UNTOUCHED WEB-DL x...
Description:
Karenjit Kaur (2018) Complete Season 2 (S02) 720p UNTOUCHED WEB-DL x264 Hindi FLASH KartiKing







[b]INFO :-

Mediainfo :-

CONTAINS ALL 6 EPISODES OF SEASON 2 !

General
Format                                   : Matroska
Format version                           : Version 4
File size                                : 352 MiB
Duration                                 : 20 min 9 s
Overall bit rate                         : 2 440 kb/s

Video
ID                                       : 1
Format                                   : AVC
Format/Info                              : Advanced Video Codec
Format profile                           : [email protected]
Format settings                          : CABAC / 4 Ref Frames
Format settings, CABAC                   : Yes
Format settings, RefFrames               : 4 frames
Codec ID                                 : V_MPEG4/ISO/AVC
Duration                                 : 20 min 9 s
Bit rate                                 : 2 374 kb/s
Nominal bit rate                         : 2 500 kb/s
Width                                    : 1 280 pixels
Height                                   : 720 pixels
Display aspect ratio                     : 16:9
Frame rate mode                          : Constant
Frame rate                               : 25.000 FPS
Color space                              : YUV
Chroma subsampling                       : 4:2:0
Bit depth                                : 8 bits
Scan type                                : Progressive
Bits/(Pixel*Frame)                       : 0.103
Stream size                              : 342 MiB (97%)
Audio
ID                                       : 3
Format                                   : AAC LC
Format/Info                              : Advanced Audio Codec Low Complexity
Codec ID                                 : A_AAC-2
Duration                                 : 20 min 9 s
Bit rate                                 : 64.3 kb/s
Channel(s)                               : 2 channels
Channel layout                           : L R
Sampling rate                            : 48.0 kHz
Frame rate                               : 46.875 FPS (1024 SPF)
Compression mode                         : Lossy
Stream size                              : 9.28 MiB (3%)



SCREENSHOTS :-
[/b]







[b]KartiKing
[/b]


Category:TV > TV Packs
Lang:Hindi  Hindi
Total Size:2.40 GB
Info Hash:c1195c5680bd1cd3c41899453f3942bcd6071167
Added By:KartiKing
Date Added:17-09-2018 21:24:00

  

Files

File List: 
 File Size
Karenjit Kaur S02E01 Beat around the Bush 720p WEB-DL FLASH KartiKing.mkv352 MB
Karenjit Kaur S02E02 Guilty of Doing It our way 720p WEB-DL FLASH KartiKing.mkv455 MB
Karenjit Kaur S02E03 Is It Happily Ever After 720p WEB-DL FLASH KartiKing.mkv380 MB
Karenjit Kaur S02E04 The Princess and The Frogs 720p WEB-DL FLASH KartiKing.mkv405 MB
Karenjit Kaur S02E05 The Last Wish 720p WEB-DL FLASH KartiKing.mkv432 MB
Karenjit Kaur S02E06 Time to Say Goodbye 720p WEB-DL FLASH KartiKing.mkv433 MB



Loading...
Comments

There are currently no comments. Be the first one to write something !

Disclaimer: None of the files shown here are actually hosted or transmitted by this server. The links are provided solely by this site's users. The site moderation is also a service provided by the site's users. The administrator of this site (ettv.tv) cannot be held responsible for what its users post, or any other actions of its users. You may not use this site to distribute or download any material when you do not have the legal rights to do so. It is your own responsibility to adhere to these terms.